#TITLE:Need The Speed;
#SUBTITLE:;
#ARTIST:m1dy;
#TITLETRANSLIT:;
#SUBTITLETRANSLIT:;
#ARTISTTRANSLIT:;
#CREDIT:;
#BANNER:needthespeed-bn.PNG;
#BACKGROUND:needthespeed-bg.PNG;
#LYRICSPATH:;
#CDTITLE:OMEGAspike.PNG;
#MUSIC:11-Need_The_Speed.mp3;
#OFFSET:0.440;
#SAMPLESTART:103.000;
#SAMPLELENGTH:12.000;
#SELECTABLE:YES;
#BPMS:0.000=222.340;
#STOPS:28.000=0.980
,276.000=2.000
;
#BGCHANGES:;
// cache tags:
#FIRSTBEAT:23.500;
#LASTBEAT:548.250;
#SONGFILENAME:Songs/Music V.I.P ^_^/(OMEGAspike)Need The Speed/11-Need_The_Speed.sm;
#HASMUSIC:1;
#HASBANNER:1;
#MUSICLENGTH:160.339;
// end cache tags

//---------------dance-single - ----------------
#NOTES:
     dance-single:
     :
     Hard:
     13:
     1.000,1.000,1.000,0.462,0.689,1144.000,405.000,74.000,0.000,3.000:
0000
0000
0000
0000
,
0000
0000
0000
0000
,
0000
0000
0000
0000
,
0000
0000
0000
0000
,
0000
0000
0000
0000
,
0000
0000
0000
0000
0000
0000
0000
0000
0000
0000
0000
0000
0000
0000
0100
0010
,
0100
0010
0100
0010
0100
0010
0100
0010
0100
0010
0100
0010
0100
0010
0100
0010
,
0000
1000
0100
0010
0001
0000
1000
0000
0001
0000
1000
0000
0001
0000
1000
0000
0001
0000
1000
0000
0001
0000
1000
0000
0001
0000
1000
0000
0001
0000
1000
0000
,
0101
0010
1001
0100
0011
1000
0110
0001
,
1010
0100
1001
0010
0101
0010
1100
0001
,
0110
1000
0101
0010
1001
0010
1100
0001
,
0110
0000
1000
0000
0101
0000
0010
0000
1100
0000
0001
0000
0110
0000
1000
0100
,
0011
1000
0110
1000
0101
0010
1001
0100
,
0011
1000
0110
1000
0101
0010
1100
0001
,
1000
0010
1000
0010
1000
0010
1000
0010
1000
0010
1000
0010
1000
0010
1000
0010
,
0200
0302
0203
0302
,
1013
0100
1001
0010
0101
1000
0011
1000
,
0110
1000
0101
0010
1001
0100
0011
1000
,
0110
1000
0011
0100
1001
0010
0101
0010
,
1100
0000
0001
0000
0110
0000
1000
0000
0101
0000
0010
0000
1001
0000
0100
0010
,
1100
0001
1010
0100
1001
0100
0011
1000
,
0110
0001
1010
0100
1001
0010
0101
1000
,
0101
0020
2030
3002
,
0013
0000
0010
0000
0010
0000
0010
0000
0100
0001
0100
0001
0100
0001
0100
0001
,
1100
0000
0000
0000
0010
0000
0000
0000
0101
0000
0000
0000
0010
0000
0000
0000
1001
0000
0000
0000
1000
0100
0010
1000
0001
0000
0000
0000
0010
0000
0000
0000
,
1001
0000
0100
0000
0011
0000
1000
0000
0110
0000
1000
0000
0101
0000
0010
0001
,
1100
0000
0001
0000
0110
0000
1000
0000
0101
0000
0010
0000
1001
0000
0100
0010
,
0001
0000
0000
0000
0100
0000
1000
0000
0010
0000
0000
0000
0100
0000
0000
0000
1010
0000
0000
0000
0001
0000
0000
0000
0110
0000
0000
0000
0001
0010
0100
0001
,
1000
0000
0000
0000
0010
0000
0000
0000
0101
0000
0000
0000
1000
0000
0000
0000
0110
0000
0000
0000
0001
0000
0000
0000
1010
0000
0000
0000
0100
0010
0001
1000
,
0100
0010
1001
0100
0011
1000
0110
0001
,
2020
3030
0000
0000
0000
0000
0000
0000
0002
0000
0000
0000
0000
0000
0000
0000
2003
0000
0000
0000
0000
0000
0000
0000
3002
0000
0000
0000
0000
0000
0000
0000
2003
0000
0000
0000
0000
0000
0000
0000
3002
0000
0000
0000
0000
0000
0000
0000
2003
0000
0000
0000
0000
0000
0000
0000
3002
0000
0000
0000
0000
0000
0000
0000
,
2003
0000
0000
0000
0000
0000
0000
0000
3001
0000
0000
0000
0010
0000
0000
0000
0100
0000
0000
0000
0000
0000
0000
0000
1000
0000
0000
0000
0000
0000
0000
0000
0100
0000
0000
0000
0010
0000
0000
0000
0001
0000
0000
0000
0000
0000
0000
0000
2002
3003
0000
0000
0000
0000
0000
0000
0000
0000
0000
0000
0000
0000
0000
0000
,
0010
1000
0001
0100
0010
1000
0001
0100
0010
1000
0001
0100
0010
1000
0001
0100
,
0020
0000
0000
2030
0000
0000
3200
0000
0320
0000
0030
0000
0000
0000
0000
0000
,
0011
0100
1001
0010
1100
0001
0110
1000
,
0011
0100
1001
0010
0101
1000
0110
0001
,
1100
0010
1001
0100
0011
1000
0110
0001
,
1000
0100
0010
0001
1000
0100
0010
0001
1000
0100
0010
0001
1000
0100
0010
0001
,
1100
0010
0101
1000
0110
0001
1010
0100
,
1001
0010
0101
0010
1100
0010
0101
1000
,
0011
0000
1000
0000
0100
0000
0010
0000
0001
1000
0001
1000
0001
1000
0001
1000
,
0010
0100
0010
0100
0010
0100
0010
0100
0010
0100
0010
0100
0010
0100
0010
0100
,
1001
0010
1100
0010
0101
1000
0011
0100
,
1010
0100
1001
0010
0101
1000
0110
0001
,
1100
0010
0101
1000
0011
0100
1001
0010
,
1100
0010
0101
1000
0101
0010
1100
0010
,
0101
0010
1001
0100
0011
1000
0110
0001
,
1100
0010
0101
0010
1001
0100
0011
1000
,
0101
0000
0010
0000
1000
0000
0100
0000
0010
0001
0010
0001
0010
0001
0010
0001
,
1000
0010
1000
0010
1000
0010
1000
0010
1000
0010
1000
0010
1000
0010
1000
0010
,
0200
0000
0000
0000
,
0000
0000
0000
0000
,
0000
0000
0000
0000
,
0301
1000
0001
1000
0001
1000
0001
1000
0001
1000
0001
1000
0001
1000
0001
1000
,
0001
1000
0001
0100
0010
1000
0001
0100
0010
1000
0100
0010
0001
0010
0100
1000
,
0011
1001
1010
1001
,
0101
1001
0110
1010
,
0101
0000
0000
0000
0000
0000
0000
0000
0000
0000
0000
0000
0000
0000
0000
0000
2002
3003
0000
0000
0000
0000
0000
0000
0000
0000
0000
0000
0000
0000
0000
0000
0220
0330
0000
0000
0000
0000
0000
0000
0000
0000
0000
0000
0000
0000
0000
0000
0022
0033
0000
0000
0000
0000
0000
0000
0000
0000
0000
0000
0000
0000
0000
0000
,
2200
3300
0000
0000
0000
0000
0000
0000
0000
0000
0000
0000
0000
0000
0000
0000
0220
0330
0000
0000
0000
0000
0000
0000
0000
0000
0000
0000
0000
0000
0000
0000
0202
0303
0000
0000
0000
0000
0000
0000
0000
0000
0000
0000
0000
0000
0000
0000
2020
3030
0000
0000
0000
0000
0000
0000
0000
0000
0000
0000
0000
0000
0000
0000
,
2002
3003
0000
0000
0000
0000
0000
0000
0000
0000
0000
0000
0000
0000
0000
0000
0110
0000
0000
0000
0000
0000
0000
0000
0000
0000
0000
0000
0000
0000
0000
0000
1010
0000
0000
0000
0000
0000
0000
0000
0000
0000
0000
0000
0000
0000
0000
0000
0101
0000
0000
0000
0000
0000
0000
0000
0000
0000
0000
0000
0000
0000
0000
0000
,
1001
0110
0011
1100
,
1001
0000
0000
0000
0000
0000
0000
0000
0000
0000
0000
0000
0000
0000
0000
0000
2020
3030
0000
0000
0000
0000
0000
0000
0000
0000
0000
0000
0000
0000
0000
0000
0202
0303
0000
0000
0000
0000
0000
0000
0000
0000
0000
0000
0000
0000
0000
0000
0220
0330
0000
0000
0000
0000
0000
0000
0000
0000
0000
0000
0000
0000
0000
0000
,
2002
3003
0000
0000
0000
0000
0000
0000
0000
0000
0000
0000
0000
0000
0000
0000
0022
0033
0000
0000
0000
0000
0000
0000
0000
0000
0000
0000
0000
0000
0000
0000
2200
3300
0000
0000
0000
0000
0000
0000
0000
0000
0000
0000
0000
0000
0000
0000
0220
0330
0000
0000
0000
0000
0000
0000
0000
0000
0000
0000
0000
0000
0000
0000
,
0022
0033
0000
0000
0000
0000
0000
0000
0000
0000
0000
0000
0000
0000
0000
0000
1100
0000
0000
0000
0000
0000
0000
0000
0000
0000
0000
0000
0000
0000
0000
0000
0110
0000
0000
0000
0000
0000
0000
0000
0000
0000
0000
0000
0000
0000
0000
0000
0101
0000
0000
0000
0000
0000
0000
0000
0000
0000
0000
0000
0000
0000
0000
0000
,
1010
0110
1001
0101
,
1100
0000
0000
0000
0000
0000
0000
0000
0000
0000
0000
0000
0000
0000
0000
0000
0022
0033
0000
0000
0000
0000
0000
0000
0000
0000
0000
0000
0000
0000
0000
0000
2020
3030
0000
0000
0000
0000
0000
0000
0000
0000
0000
0000
0000
0000
0000
0000
2002
3003
0000
0000
0000
0000
0000
0000
0000
0000
0000
0000
0000
0000
0000
0000
,
0220
0330
0000
0000
0000
0000
0000
0000
0000
0000
0000
0000
0000
0000
0000
0000
2020
3030
0000
0000
0000
0000
0000
0000
0000
0000
0000
0000
0000
0000
0000
0000
0202
0303
0000
0000
0000
0000
0000
0000
0000
0000
0000
0000
0000
0000
0000
0000
0220
0330
0000
0000
0000
0000
0000
0000
0000
0000
0000
0000
0000
0000
0000
0000
,
2200
3300
0000
0000
0000
0000
0000
0000
0000
0000
0000
0000
0000
0000
0000
0000
0011
0000
0000
0000
0000
0000
0000
0000
0000
0000
0000
0000
0000
0000
0000
0000
0110
0000
0000
0000
0000
0000
0000
0000
0000
0000
0000
0000
0000
0000
0000
0000
0011
0000
0000
0000
0000
0000
0000
0000
0000
0000
0000
0000
0000
0000
0000
0000
,
1100
0110
1010
0101
,
1001
0000
0000
0000
1001
0000
0010
0000
1100
0000
0010
0000
0101
0000
0010
1000
,
0101
0000
0010
0000
1100
0000
0010
0000
0101
0000
1000
0000
0011
0000
0100
0001
,
1010
0000
0001
0000
1100
0000
0010
0000
1001
0000
0010
0000
0101
0000
1000
0100
,
0011
0000
0100
0000
1000
0001
1000
0001
1000
0001
1000
0001
1000
0000
0010
0000
,
0001
0010
0100
1000
0011
0000
1000
0000
0101
0000
1000
0000
0110
0000
1000
0100
,
0011
0000
1000
0000
0011
0000
0100
0000
1001
0000
0100
0000
1010
0000
0100
0010
,
1001
0000
0100
0000
1010
0000
0100
0000
1001
0000
0010
0000
0101
0000
1000
0100
,
0011
0000
0100
0000
0010
1000
0001
0100
0010
1000
0001
0100
0010
1000
0001
0100
,
0010
1000
0001
0100
1001
0000
0010
0000
0101
0000
1000
0000
0110
0000
0001
0000
,
0110
1000
0110
0001
1010
0100
0011
1000
,
0110
0001
1010
0100
1001
0100
0011
0100
,
1001
0010
1100
0010
0101
0010
1100
0001
,
1100
0000
0010
0100
0011
0000
1100
0000
0011
0000
1100
0000
1001
0000
0110
0000
,
1001
0110
1010
0101
1010
0101
1001
0110
,
1001
0000
0110
0000
1100
0000
0011
0000
1100
0000
0011
0000
1000
0100
0010
0001
,
0010
0100
1000
0001
0110
0000
0000
0000
0000
0000
0000
0000
0000
0000
0000
0000
,
0000
0000
0000
0000
1000
0010
1000
0010
1000
0010
1000
0010
1000
0010
1000
0010
,
1000
0001
0010
0100
1001
0000
0010
0000
0101
0000
1000
0000
0110
0000
0001
0000
,
1010
0100
0011
0100
1001
0010
0101
1000
,
0110
0001
1010
0100
0011
0100
1001
0010
,
1001
0100
0011
0100
1010
0100
1001
0010
,
1100
0000
0001
1000
0110
0000
1000
0000
0011
0000
0100
0000
1010
0000
0100
0000
,
1001
0010
1100
0010
0101
1000
0110
0001
,
1100
0000
0001
0000
0100
0010
0100
0010
0100
0010
0100
0010
0100
0010
0100
0010
,
0100
0010
0100
0010
1001
0000
0000
0000
0000
0000
0000
0000
1000
0100
1000
0100
,
1000
0100
1000
0100
0011
0000
0100
0000
1001
0000
0100
0000
1010
0000
0100
0000
,
1001
0100
0011
0100
1010
0100
1001
0010
,
0101
0010
1100
0001
0110
1000
0011
0100
,
1001
0010
1100
0010
0101
1000
0101
0010
,
1001
0000
0100
0010
1100
0000
0001
0000
0101
0000
0010
0000
1001
0000
0100
0000
,
1010
0001
0110
1000
0101
0010
1100
0001
,
1100
0010
1001
0000
0000
0000
0000
0000
,
0000
0000
0000
0000
0001
0010
0100
1000
0010
0100
0001
0100
0010
1000
0010
0100
,
0001
0010
0100
1000
0010
0100
0010
0100
0010
0100
0010
0100
0010
0100
0010
0100
,
0010
0100
0010
0100
1001
0000
0010
0000
1100
0000
0001
0000
0110
0000
1000
0000
,
0101
0010
1100
0001
0110
1000
0101
0010
,
1001
0100
1010
0100
1001
0010
1100
0001
,
0110
1000
0011
0100
1001
0010
1100
0001
,
0110
0001
1010
0100
1001
0010
1001
0100
,
0011
1000
0110
0001
1010
0100
1001
0010
,
1100
0000
0001
0000
1100
0000
0010
0000
0001
0000
1000
0000
0001
0100
0001
0100
,
0001
0100
0001
0100
0020
0000
0000
0000
0000
0000
0000
0000
0000
0000
0000
0000
,
0000
0000
1130
0001
0110
1000
0101
0010
,
1001
0100
0011
1000
0110
1000
0101
0010
,
1100
0010
0101
1000
0011
0100
1010
0100
,
0011
1000
0110
0001
1010
0100
1001
0010
,
0101
0010
1100
0011
1100
0011
1100
0011
,
1100
0011
1001
0110
1001
0110
1001
0110
,
1001
0000
0110
0000
0101
0000
1010
0000
0101
0000
1010
0000
0100
0001
0100
0001
,
0100
0001
0100
0001
1000
0010
1000
0010
1000
0010
1000
0010
1000
0010
1000
0010
,
1000
0010
1000
0010
1100
0000
0000
0000
0000
0000
0000
0000
0000
0000
0000
0000
,
0000
0000
0000
0000
1000
0100
0010
0001
1000
0001
0100
0010
1000
0001
0100
0001
,
0010
0100
1000
0001
1100
0000
0010
0000
0101
0000
1000
0000
0110
0000
0001
0010
,
1100
0000
0010
0000
1100
0000
0010
0000
0101
0000
1000
0000
0110
0000
0001
0010
,
1100
0000
0010
0000
1100
0000
0010
0000
0101
0000
0010
0000
1100
0000
0010
0100
,
0011
0000
1000
0000
0101
0000
0010
1000
0010
1000
0010
1000
0010
1000
0010
1000
,
0010
1000
0100
0010
1001
0000
0100
0000
1001
0000
0010
0000
0101
0000
0010
1000
,
0011
0000
0100
0000
1001
0000
0010
0000
0101
0000
1000
0000
0110
0000
0001
0100
,
1010
0000
0100
0000
0011
0000
1000
0000
0110
0000
0001
0000
1100
0000
0010
0001
,
1100
0000
0010
0000
0101
0000
1000
0000
0100
0010
0100
0010
0100
0000
0001
0000
,
0200
0000
0311
1000
0110
0001
1010
0100
,
1001
0010
0101
1000
0011
0100
1010
0100
,
1001
0010
1100
0010
0101
1000
0110
0001
,
1010
0100
0011
0100
1010
0100
1001
0010
,
0101
1000
0011
1100
1001
0110
1010
0101
,
1001
0011
1100
0011
0101
1010
1001
0110
,
1010
0000
0101
0000
0010
1000
0010
1000
0010
1000
0010
1000
0010
1000
0001
0100
,
0001
0100
0001
0100
0010
1000
0100
0001
0100
1000
0010
0001
0010
1000
0100
0010
,
0001
1100
0000
0000
0000
0000
0000
0000
0000
0000
0000
0000
0000
0000
0000
0000
;
